Venom (2018) 720p BRRip HEVC 750MB [MovC Torrent Free Download

Seeders : 994   &   Leechers : 609      06-12-2018 (1 week)
Venom (2018) 720p BRRip HEVC 750MB [MovC Torrent Download
Added: ago by rock3 ***** in Movies   753.5 MB   Hits : 29
Info Hash: 60F3BAB0B310976787D2D95751B03FB8965B045E Download
Venom (2018) 720p BRRip HEVC 750MB [MovC Torrent Download

Anonymous and Direct Download movies , software , shows...

Fast Safe Anonymous
movies, software, shows...
Venom
Action /Sci-Fi  .   112 min   6.9/10
Director : Ruben Fleischer  
Tags: Venom  (2018)  720p  BRRip  HEVC  750MB  

Released:
05 Oct 2018
When Eddie Brock acquires the powers of a symbiote, he will have to release his alter-ego "Venom" to save his life.

Torrent Description



Format                      : Matroska
Format version              : Version 4 / Version 2
File size                   : 753 MiB
Duration                    : 1 h 52 min
Overall bit rate            : 940 kb/s
Movie name                  : Venom.2018.720p.BRRip.HEVC.MovCr.cc
Encoded date                : UTC 2018-12-06 04:01:27
Writing application         : mkvmerge v28.1.0 ('Morning Child') 32-bit
Writing library             : libebml v1.3.6 + libmatroska v1.4.9

Video
ID                          : 2
Format                      : HEVC
Format/Info                 : High Efficiency Video Coding
Format profile              : [email protected]@Main
Codec ID                    : V_MPEGH/ISO/HEVC
Duration                    : 1 h 52 min
Bit rate                    : 874 kb/s
Width                       : 1 280 pixels
Height                      : 534 pixels
Display aspect ratio        : 2.40:1
Original display aspect rat : 2.40:1
Frame rate mode             : Constant
Frame rate                  : 23.976 (24000/1001) FPS
Color space                 : YUV
Chroma subsampling          : 4:2:0
Bit depth                   : 8 bits
Bits/(Pixel*Frame)          : 0.053
Stream size                 : 701 MiB (93%)
Writing library             : x265 2.6:[Windows][GCC 7.3.0][64 bit] 8bit+10bit+12bit
Encoding settings           : cpuid=1173503 / frame-threads=5 / numa-pools=24,24 / wpp / no-pmode / no-pme / no-psnr / no-ssim / log-level=2 / input-csp=1 / input-res=1280x534 / interlace=0 / total-frames=0 / level-idc=0 / high-tier=1 / uhd-bd=0 / ref=3 / no-allow-non-conformance / no-repeat-headers / annexb / no-aud / no-hrd / info / hash=0 / no-temporal-layers / open-gop / min-keyint=24 / keyint=240 / bframes=4 / b-adapt=0 / b-pyramid / bframe-bias=0 / rc-lookahead=15 / lookahead-slices=0 / scenecut=40 / no-intra-refresh / ctu=64 / min-cu-size=8 / no-rect / no-amp / max-tu-size=32 / tu-inter-depth=1 / tu-intra-depth=1 / limit-tu=0 / rdoq-level=0 / dynamic-rd=0.00 / no-ssim-rd / signhide / no-tskip / nr-intra=0 / nr-inter=0 / no-constrained-intra / strong-intra-smoothing / max-merge=2 / limit-refs=3 / no-limit-modes / me=1 / subme=2 / merange=57 / temporal-mvp / weightp / no-weightb / no-analyze-src-pics / deblock=0:0 / sao / no-sao-non-deblock / rd=2 / no-early-skip / rskip / fast-intra / no-tskip-fast / no-cu-lossless / no-b-intra / no-splitrd-skip / rdpenalty=0 / psy-rd=2.00 / psy-rdoq=0.00 / no-rd-refine / analysis-reuse-mode=0 / no-lossless / cbqpoffs=0 / crqpoffs=0 / rc=abr / bitrate=873 / qcomp=0.60 / qpstep=4 / stats-write=0 / stats-read=2 / cplxblur=20.0 / qblur=0.5 / ipratio=1.40 / pbratio=1.30 / aq-mode=1 / aq-strength=1.00 / cutree / zone-count=0 / no-strict-cbr / qg-size=32 / no-rc-grain / qpmax=69 / qpmin=0 / no-const-vbv / sar=255 / sar-width / : / sar-height=801:800 / overscan=0 / videoformat=5 / range=0 / colorprim=1 / transfer=1 / colormatrix=1 / chromaloc=0 / display-window=0 / max-cll=0,0 / min-luma=0 / max-luma=255 / log2-max-poc-lsb=8 / vui-timing-info / vui-hrd-info / slices=1 / no-opt-qp-pps / no-opt-ref-list-length-pps / no-multi-pass-opt-rps / scenecut-bias=0.05 / no-opt-cu-delta-qp / no-aq-motion / no-hdr / no-hdr-opt / no-dhdr10-opt / analysis-reuse-level=5 / scale-factor=0 / refine-intra=0 / refine-inter=0 / refine-mv=0 / no-limit-sao / ctu-info=0 / no-lowpass-dct / refine-mv-type=0 / copy-pic=1
Default                     : Yes
Forced                      : No
Color range                 : Limited
Color primaries             : BT.709
Transfer characteristics    : BT.709
Matrix coefficients         : BT.709

Audio
ID                          : 3
Format                      : AAC
Format/Info                 : Advanced Audio Codec
Format profile              : HE-AAC / LC
Format settings             : Explicit
Codec ID                    : A_AAC-2
Duration                    : 1 h 52 min
Bit rate                    : 64.0 kb/s
Channel(s)                  : 2 channels
Channel positions           : Front: L R
Sampling rate               : 48.0 kHz / 24.0 kHz
Frame rate                  : 23.438 FPS (1024 SPF)
Compression mode            : Lossy
Delay relative to video     : 31 ms
Stream size                 : 51.3 MiB (7%)
Default                     : Yes
Forced                      : No

Text
ID                          : 1
Format                      : UTF-8
Codec ID                    : S_TEXT/UTF8
Codec ID/Info               : UTF-8 Plain Text
Duration                    : 1 h 49 min
Bit rate                    : 56 b/s
Count of elements           : 1397
Stream size                 : 45.1 KiB (0%)
Language                    : English
Default                     : Yes
Forced                      : No

Menu
00:00:00.000                : :Chapter 1
00:09:59.599                : :Chapter 2
00:14:59.941                : :Chapter 3
00:19:59.198                : :Chapter 4
00:25:00.499                : :Chapter 5
00:29:59.840                : :Chapter 6
00:35:00.098                : :Chapter 7
00:39:59.522                : :Chapter 8
00:44:59.780                : :Chapter 9
00:50:01.165                : :Chapter 10
00:55:00.297                : :Chapter 11
00:59:59.596                : :Chapter 12
01:06:15.972                : :Chapter 13
01:14:17.453                : :Chapter 14
01:24:35.070                : :Chapter 15
01:33:32.690                : :Chapter 16
01:40:39.075                : :Chapter 17
01:47:17.473                : :Chapter 18











Sharing Widget


No Comments For This Torrent . Be The First to Comment

You must Login to Comment . Click Here to Login

Menu 1

Some content in menu 1.

Venom (2018) 720p BRRip HEVC 750MB [MovCr] (Size: 753.5 MB)
  Venom (2018) 720p BRRip HEVC 750MB [MovCr] 753.5 MB
tracker name
udp://tracker.leechers-paradise.org:6969/announce
udp://zer0day.ch:1337/announce
udp://open.demonii.com:1337/announce
udp://tracker.coppersurfer.tk:6969/announce
udp://exodus.desync.com:6969/announce
µTorrent compatible trackers list

Relative Torrents

Torrent Name Size Age SEED LEECH
Johnny English Strikes Again 2018 720p BRip x264 ESub [MW]
Posted by    moviezworldz   in   Movies
826.9 MB 3 minutes 134 320
Murder in the Heartland S01E01 720p HDTVx264-W4F[TGx]
Posted by    mazemaze16   in   TV
765.9 MB 3 minutes 59 690
Trailer Park of Terror 2008 720p BluRay 264 AAC
Posted by    Trige   in   Movies
1.2 GB 3 minutes 32 261
Murder in the Heartland S01E02 720p HDTVx264-W4F[TGx]
Posted by    mazemaze16   in   TV
740.2 MB 3 minutes 683 242
Mothers Day 1980 720p BluRay H264 AAC
Posted by    Trige   in   Movies
1.1 GB 12 minutes 321 766