The Heiresses [Las Herederas] 2018 1080p Torrent Free Download

Seeders : 20   &   Leechers : 458      07-12-2018 (1 week)
The Heiresses [Las Herederas] 2018 1080p Torrent Download
Added: ago by noriegaRJ ***** in Movies   1.9 GB   Hits : 34
Info Hash: 916BAC893A195090A095ACAACB82D566C2CB3FB3 Download
The Heiresses [Las Herederas] 2018 1080p Torrent Download

Anonymous and Direct Download movies , software , shows...

Fast Safe Anonymous
movies, software, shows...

Torrent Description



Release: The.Heiresses.[Las.Herederas].2018.1080p.WEB-DL.x.264.AC3.HORiZON-ArtSubs



IMDB: http://www.imdb.com/title/tt7875464

Subtitle: English.

Plot: Chela and Chiquita are both descended from wealthy families in Asunción and have been together for over 30 years. But recently, their financial situation has worsened and they begin selling off their inherited possessions. But when their debts lead to Chiquita being imprisoned on fraud charges, Chela is forced to face a new reality. Driving for the first time in years, she begins to provide a local taxi service to a group of elderly wealthy ladies. As Chela settles into her new life, she encounters the much younger Angy, forging a fresh and invigorating new connection. Chela finally begins to break out of her shell and engage with the world, embarking on her own personal, intimate revolution.


General
Complete name : The.Heiresses.[Las.Herederas].2018.1080p.WEB-DL.x.264.AC3.HORiZON-ArtSubs
format : Matroska
Format version : Version 4 / Version 2
File size : 1.89 GiB
Duration : 1h 38mn
Overall bit rate : 2 751 Kbps
Encoded date : UTC 2018-12-04T03:36:25Z
Writing application : HandBrake 1.0.7 2017040900
Writing library : Lavf57.7.2

Video
ID : 1
Format : AVC
Format/Info : Advanced Video Codec
Format profile : [email protected]
Format settings, CABAC : Yes
Format settings, ReFrames : 5 frames
Codec ID : V_MPEG4/ISO/AVC
Duration : 1h 38mn
Bit rate : 2 300 Kbps
Width : 1 916 pixels
Height : 792 pixels
Display aspect ratio : 2.40:1
Frame rate mode : Constant
Frame rate : 24.000 fps
Color space : YUV
Chroma subsampling : 4:2:0
Bit depth : 8 bits
Scan type : Progressive
Bits/(Pixel*Frame) : 0.063
Stream size : 1.54 GiB (82%)
Writing library : x264 core 148 r2708 86b7198
Encoding settings : cabac=1 / ref=5 / deblock=1:-2:-2 / analyse=0x3:0x133 / me=umh / subme=9 / psy=1 / psy_rd=1.00:0.25 / mixed_ref=1 / me_range=16 / chroma_me=1 / trellis=2 / 8x8dct=1 / cqm=0 / deadzone=6,6 / fast_pskip=1 / chroma_qp_offset=-4 / threads=9 / lookahead_threads=1 / sliced_threads=0 / nr=0 / decimate=0 / interlaced=0 / bluray_compat=0 / constrained_intra=0 / bframes=3 / b_pyramid=2 / b_adapt=2 / b_bias=0 / direct=3 / weightb=1 / open_gop=0 / weightp=2 / keyint=240 / keyint_min=24 / scenecut=40 / intra_refresh=0 / rc_lookahead=60 / rc=2pass / mbtree=1 / bitrate=2300 / ratetol=1.0 / qcomp=0.80 / qpmin=0 / qpmax=69 / qpstep=4 / cplxblur=20.0 / qblur=0.5 / vbv_maxrate=62500 / vbv_bufsize=78125 / nal_hrd=none / filler=0 / ip_ratio=1.10 / aq=1:0.50
Default : Yes
Forced : No

Audio
ID : 2
Format : AC-3
Format/Info : Audio Coding 3
Mode extension : CM (complete main)
Format settings, Endianness : Big
Codec ID : A_AC3
Duration : 1h 38mn
Bit rate mode : Constant
Bit rate : 448 Kbps
Channel count : 6 channels
Channel positions : Front: L C R, Side: L R, LFE
Sampling rate : 48.0 KHz
Bit depth : 16 bits
Compression mode : Lossy
Delay relative to video : -5ms
Stream size : 315 MiB (16%)
Title : Surround
Language : Spanish
Default : Yes
Forced : No

Text
ID : 3
Format : ASS
Codec ID : S_TEXT/ASS
Codec ID/Info : Advanced Sub Station Alpha
Compression mode : Lossless
Language : English
Default : No
Forced : No


SCREENSHOTS:







Sharing Widget


No Comments For This Torrent . Be The First to Comment

You must Login to Comment . Click Here to Login

Menu 1

Some content in menu 1.

The Heiresses [Las Herederas] 2018 1080p WEB-DL x 264 AC3 HORiZON-ArtS (Size: 1.9 GB)
  The Heiresses [Las Herederas] 2018 1080p WEB-DL x 264 AC3 HORiZON-ArtS 1.9 GB
tracker name
udp://tracker.leechers-paradise.org:6969/announce
udp://zer0day.ch:1337/announce
udp://open.demonii.com:1337/announce
udp://tracker.coppersurfer.tk:6969/announce
udp://exodus.desync.com:6969/announce
µTorrent compatible trackers list

Relative Torrents

Torrent Name Size Age SEED LEECH
Unanchored S01E06 WEB x264-TBS[TGx]
Posted by    mazemaze16   in   TV
604.0 MB 3 minutes 100 700
Unanchored S01E06 WEB x264-TBS [eztv]
Posted by    EZTVag   in   TV
601.6 MB 3 minutes 695 326
Jimmy Fallon 2018 12 18 Michelle Obama WB x264-TBS
Posted by    Trige   in   TV
576.4 MB 3 minutes 112 286
WWE Smackdown Live 2018 12 18 HDTV x264 75MB (nItRo)-XpoZ
Posted by    Xpoztorrent   in   TV
373.2 MB 3 minutes 224 579
Unanchored S01E06 720p WEB x264-TBS [ezt]
Posted by    EZTVag   in   TV
824.6 MB 3 minutes 714 256