Charusheela (2018) 720p Hindi Dubbed WEB Torrent Free Download

Seeders : 262   &   Leechers : 284      07-12-2018 (1 week)
Charusheela (2018) 720p Hindi Dubbed WEB Torrent Download
Added: ago by ictv ***** in Movies   1.2 GB   Hits : 25
Info Hash: 695F65684813A07B7F7859BCE7246C9B848359BC Download
Charusheela (2018) 720p Hindi Dubbed WEB Torrent Download

Anonymous and Direct Download movies , software , shows...

Fast Safe Anonymous
movies, software, shows...

Torrent Description



http://movcr.cc


Charusheela (2018) 720p Hindi Dubbed WEBHD x264 AAC 1.3GB [MovCr]



http://www.imdb.com/title/tt6872524/




General
Unique ID : 270263876073572877063971019604159321808 (0xCB52EDDED8D5928CF0B9E24C2F9756D0)
Complete name : www.MovCr.cc - Charusheela (2018) 720p Hindi Dubbed WEBHD x264 AAC 1.3GB [MovCr].mkv
Format : Matroska
Format version : Version 4 / Version 2
File size : 1.25 GiB
Duration : 1 h 45 min
Overall bit rate : 1 691 kb/s
Movie name : www.MovCr.cc
Encoded date : UTC 2018-12-07 17:42:40
Writing application : mkvmerge v26.0.0 ('In The Game') 64-bit
Writing library : libebml v1.3.6 + libmatroska v1.4.9

Video
ID : 1
Format : AVC
Format/Info : Advanced Video Codec
Format profile : [email protected]
Format settings : CABAC / 3 Ref Frames
Format settings, CABAC : Yes
Format settings, RefFrames : 3 frames
Codec ID : V_MPEG4/ISO/AVC
Duration : 1 h 45 min
Bit rate : 1 561 kb/s
Width : 1 280 pixels
Height : 720 pixels
Display aspect ratio : 16:9
Frame rate mode : Constant
Frame rate : 25.000 FPS
Color space : YUV
Chroma subsampling : 4:2:0
Bit depth : 8 bits
Scan type : Progressive
Bits/(Pixel*Frame) : 0.068
Stream size : 1.15 GiB (92%)
Title : www.MovCr.cc
Default : Yes
Forced : No
Color range : Limited
Color primaries : BT.709
Transfer characteristics : BT.709
Matrix coefficients : BT.709

Audio
ID : 2
Format : AAC
Format/Info : Advanced Audio Codec
Format profile : LC
Codec ID : A_AAC-2
Duration : 1 h 45 min
Bit rate : 128 kb/s
Channel(s) : 2 channels
Channel positions : Front: L R
Sampling rate : 44.1 kHz
Frame rate : 43.066 FPS (1024 SPF)
Compression mode : Lossy
Stream size : 96.6 MiB (8%)
Language : English
Default : Yes
Forced : No













Sharing Widget


No Comments For This Torrent . Be The First to Comment

You must Login to Comment . Click Here to Login

Menu 1

Some content in menu 1.

Charusheela (2018) 720p Hindi Dubbed WEBHD x264 AAC 1 3GB [MovCr] (Size: 1.2 GB)
  Charusheela (2018) 720p Hindi Dubbed WEBHD x264 AAC 1 3GB [MovCr] 1.2 GB
tracker name
udp://tracker.leechers-paradise.org:6969/announce
udp://zer0day.ch:1337/announce
udp://open.demonii.com:1337/announce
udp://tracker.coppersurfer.tk:6969/announce
udp://exodus.desync.com:6969/announce
µTorrent compatible trackers list

Relative Torrents

Torrent Name Size Age SEED LEECH
Don t Worry 2018 iTALiAN AC3 BRRip XviD-4P3
Posted by    serpe   in   Movies
1.3 GB 1 minute 289 588
The Matrix Reloaded 2003 REMASTERED 720pBluRay H264 AAC
Posted by    Trige   in   Movies
1.7 GB 1 minute 419 256
The Matrix Reloaded 2003 REMASTERED 1080 BluRay X264-AMIABLE
Posted by    Trige   in   Movies
12.1 GB 1 minute 772 366
The Matrix Revolutions 2003 REMASTERED 180p BluRay X264-AMIABLE
Posted by    Trige   in   Movies
11.0 GB 1 minute 702 149
Sabrina (2018) English - 720p - HDRip x264 - 900MB - ESub - MovCr
Posted by    MovCr   in   Movies
929.8 MB 1 minute 403 977